Jump to content
IGNORED

PC + spdif = problem


majmaj

Recommended Posts

Witam serdecznie.

Posiadam zestaw głośników podłogowych + sub DIY.

Od jakiegoś czasu mam problem z dźwiękiem w filmach (formaty DTS, Dolby) niezależnie od programu w którym odtwarzam dźwięk na frontach jest bez np: dialogów. Tak jak bym gdzieś w PC miał ustawione 5.1. Testowałem już wszystko, AC3Filter też nie pomaga.

Dodam ze amplituner poprawnie ustawiony, czyli 2.1

 

Jakieś pomysły?

Pozdrawiam.

 

edit

Logo z ac3filter:

 

nput format: DTS - 48000

User format: PCM16 - 0

Output format: SPDIF 5.1 48000

 

Use SPDIF

SPDIF status: SPDIF passthrough

SPDIF passthrough for: AC3 DTS

Use AC3 encoder (do not encode stereo PCM)

Check SPDIF sample rate (allow: 48kHz)

Query for SPDIF output support

 

Filter chain:

(DTS - 48000) -> Spdifer -> (SPDIF 5.1 48000) -> Dejitter -> (SPDIF 5.1 48000)

 

Spdifer

Output format: SPDIF 5.1 48000

SPDIF format: padded

Bitstream: 16bit LE

 

Dejitter

Enabled: true

Threshold: 100ms

Time shift: 0ms

Time scale: 1.0

 

 

 

I jeszcze z KMPlayer:

 

[Primary Filtergraph]

0) - KMP Matroska Reader

1) - KMP Audio Codec

2) - CoreAVC Video Decoder

3) - KMP Audio Transform(Copy)

4) - Haali's Video Renderer

5) - Default DirectSound Device

 

[Audio Info]

Dekoder -(0x8) KMP Audio Codec(DTS(Digital Theater Systems)-LibDTS.dll)

Format -Major Type: Audio - Sub Type: PCM

WaveFormatEx: AC3 SPDIF(0x92), 48000 Hz, 16 Bits, 2 Ch

 

[Audio DSP]

+Pre amplification: Main: (100%)

+Auto Volume Control

+Audio Plugin

 

[KMPlayer]

+Version: 3.0.0.1439(6 910 976, 2010-11-03 09:05:54)

+libcodec.dll: Exist(4 870 254, 2010-10-18 02:00:06)

+libmplay.dll: Exist(431 616, 2008-07-14 03:31:44)

+PProcDLL.dll: Exist(1 769 472, 2008-02-25 07:07:04)

+LibDTS.dll: Exist(178 174, 2008-12-05 08:42:20)

+liba52.dll: Exist(73 063, 2008-12-05 08:41:10)

+libfaad2.dll: Exist(335 155, 2008-12-05 08:37:06)

+libmad.dll: Exist(123 036, 2008-12-05 08:42:30)

+libmpeg2.dll: Exist(154 644, 2008-12-05 08:42:42)

+theora.dll: Exist(200 864, 2008-12-05 08:43:32)

+OggVorbis.dll: Exist(1 165 312, 2008-02-25 07:07:00)

+xviddll.dll: Exist(758 319, 2008-12-05 08:58:36)

+Old_QUARTZ.DLL: Exist(770 048, 2008-02-25 07:07:00)

+AboutDll.dll: Exist(105 472, 2005-10-03 06:12:18)

+DTView.dll: Exist(104 448, 2008-02-25 07:04:36)

+MPlayer.dll: Missed

+ImLoader.dll: Exist(856 064, 2008-02-25 07:05:22)

 

 

--------------------

[info pliku]

--------------------

 

Format : Matroska

File size : 7.65 GiB

Duration : 2h 47mn

Overall bit rate : 6 532 Kbps

Encoded date : UTC 2016-03-04 22:34:23

Writing application : mkvmerge v8.3.0 ('Over the Horizon') 64bit

Writing library : libebml v1.3.1 + libmatroska v1.4.2

Video #1

ID : 1

Format : AVC

Format/Info : Advanced Video Codec

Format profile : High@L4.1

Format settings, CABAC : Yes

Format settings, ReFrames : 5 frames

Muxing mode : Container profile=Unknown@4.1

Codec ID : V_MPEG4/ISO/AVC

Duration : 2h 47mn

Bit rate : 4 892 Kbps

Nominal bit rate : 5 021 Kbps

Width : 1 280 pixels

Height : 464 pixels

Display aspect ratio : 2.759

Frame rate : 23.976 fps

Resolution : 24 bits

Colorimetry : 4:2:0

Scan type : Progressive

Bits/(Pixel*Frame) : 0.344

Stream size : 5.73 GiB (75%)

 

Audio #2

ID : 2

Format : DTS

Format/Info : Digital Theater Systems

Codec ID : A_DTS

Duration : 2h 47mn

Bit rate mode : Constant

Bit rate : 1 510 Kbps

Channel(s) : 6 channels

Channel positions : Front: L C R, Surround: L R, LFE

Sampling rate : 48.0 KHz

Resolution : 24 bits

Stream size : 1.77 GiB (23%)

Link to comment
Share on other sites

  • 3 weeks later...

Straszny bałagan w tych ustawieniach. Nie bardzo znam KMP, więc może coś przeoczyłem, ale AC3Filter pokazuje, że jest 5.1, KMP pokazuje że jest 2.0. Przez co ten dźwięk w końcu idzie? Czemu KMP nie pokazuje w FilterGraph, że AC3Filter jest używany? Sprawdzałeś w ogóle czy on działa podczas odtwarzania?

 

Jak wyświetla DTS/DolbyD, to znaczy że winę ponosi amplituner, skoro surowy strumień ze ścieżki filmu jest wysyłany do niego i on ma nad nim pełnąkontrolę.

No nie do końca. Nie wiadomo czy amplituner dostaje surowy strumień z płyty, czy przechodzi po drodze jakieś modyfikacje.

Epson LS10000; Cambridge CXU + Arcam FMJ P7; Polk Reserve R700 + Paradigm Center 3 v7 + Studio 10 v5 + sub Paradigm Seismic 110; Schiit Asgard 3

Link to comment
Share on other sites

No nie do końca. Nie wiadomo czy amplituner dostaje surowy strumień z płyty, czy przechodzi po drodze jakieś modyfikacje.

No jest to możliwe, jeśli po drodze oryginalny ac3 jest dekodowany, rozpaskudzany/mieszany/manipulowany, a następnie ponownie kodowany do ac3.
Link to comment
Share on other sites

Archived

This topic is now archived and is closed to further replies.

  • Recently Browsing   0 members

    • No registered users viewing this page.
×
×
  • Create New...

Important Information

We have placed cookies on your device to help make this website better. You can adjust your cookie settings, otherwise we'll assume you're okay to continue.

                  wykrzyknik.png

AdBlock blocking software detected!


Our website lives up to the displayed advertisements.
The ads are thematically related to the site and are not bothersome.

Please disable the AdBlock extension or blocking software while using the site.

 

Registered users can disable this message.