Jump to content
IGNORED

Jak stworzyc plik CUE obslugiwany przez EAC ?


futu

Recommended Posts

czasami trafiaja mi sie pliki flac czy ape w wiekszosci jest wszystko ok i mozna wypalac na EAC ale zdarzaja sie zle pliki CUE albo ich brak a bez pliku cue nie wypalimy w EAC i w zwiazku z tym mam prosbe o napisanie jak zrobic plik cue jesli mam pliki niech bedzie flac?

 

czyli wybieram 15 plikow flac kazdy jest jedna sciezka audio - jak zrobic plik cue zeby te 15 plikow nagrac po prostu EAC-em na AUDIO ?

Link to comment
Share on other sites

wypalalem zazwyczaj feurio ale jakies problemy z licencja sie pojawiaja ostatnio a znow bym musial posiedziec zeby wiedziec jak program to sprawdza i zablokowac wiec przerzucam sie na inny program, jak na razie przerabiam na waw i nagrywam feurio...

 

dobra sprawdze burn... a co do cue to tez z ciekawosci troche potrzebuje wiedziec

Link to comment
Share on other sites

>dobra sprawdze burn... a co do cue to tez z ciekawosci troche potrzebuje wiedziec

 

w pliku CUE masz podane ściweżki do poszczególnych plików dźwiękowych,

często jest tak, że te ścieżki odnosza się do plików wav, czyli musisz najpierw tego flac czy ape przekonwertować do wav, Ale niekoniecznie , możesz także wyedytować plik CUE i zmienić w nim ścieżki z wav na flac czy ape czy co tam masz.

EAC jest bardzo elastyczny - musisz tylko ruszyć głową.

Patrz w "edytor układu płyty" (WRI)

Link to comment
Share on other sites

pankracek - takie rzeczy jak wyedytowanie pliku w notatniku to znam i robie to bo czesto bez edycji eacem nie nagramy, chocby dlatego co napisales - odniesienie bedzie do wav a plik bedzie np. ape

 

... ale nie majac w ogole pliku cue nie stworze go samemu i dlatego potrzebuje program do tego

 

ps. jesli plik cue nie dziala a plik flac jest w calosci to tutaj juz nie wiem co zrobic.. pozostaje modyfikacja notatnikiem

Link to comment
Share on other sites

EACiem można tworzyć pliki CUE

otwierasz edytor układu płyty naciskając ikonkę WRI, nasatępnie PLIK - NOWY ARKUSZ DYREKTYW (czyli CUE właśnie), następnie UKłAD - DOŁĄCZ PLIKI( tu wybierasz opcje z przerwą czy bez), potem PLIK - ZAPISZ ARKUSZ DYREKTYW i masz plik cue.

Z plikami WAV działa bez problemu.

Link to comment
Share on other sites

ps. jesli plik cue nie dziala a plik flac jest w calosci to tutaj juz nie wiem co zrobic.. pozostaje modyfikacja notatnikiem

 

a jaki w tym problem?

Jestem Eszkimosem. Na Aktarktydzie jestem rebe

Link to comment
Share on other sites

masz plik ape, lub flac i plik cue.

konwertujesz ape (lub flac) do pliku WAV np. programem MediaMonkey

 

nadajesz nowo powstałemu plikowi nazwę np. skynyrd ;)

taką samą nazwe nadajesz plikowi cue.

edytujesz plik cue w notatniku - zmieniasz zapisy w pozycji TITLE i FILE

 

w ten sposób:

 

REM GENRE Gothic

REM DATE 1980

REM DISCID 2710DA14

REM COMMENT "ExactAudioCopy v0.95b2"

CATALOG 0602498369135

PERFORMER "Siouxsie and The Banshees"

TITLE "Kaleidoscope (Remastered 2006)"

FILE "CDImage.wav" WAVE

TRACK 01 AUDIO

TITLE "Happy House"

PERFORMER "Siouxsie and The Banshees"

ISRC GBAKW8101061

INDEX 01 00:00:00

TRACK 02 AUDIO

TITLE "Tenant"

PERFORMER "Siouxsie and The Banshees"

ISRC GBF068025030

INDEX 00 03:51:53

INDEX 01 03:52:71

TRACK 03 AUDIO

TITLE "Trophy"

PERFORMER "Siouxsie and The Banshees"

ISRC GBF068025040

INDEX 01 07:34:35

 

 

na:

 

 

REM GENRE Gothic

REM DATE 1980

REM DISCID 2710DA14

REM COMMENT "ExactAudioCopy v0.95b2"

CATALOG 0602498369135

PERFORMER "Siouxsie and The Banshees"

TITLE skynyrd

FILE skynyrd.wav WAVE

TRACK 01 AUDIO

TITLE "Happy House"

PERFORMER "Siouxsie and The Banshees"

ISRC GBAKW8101061

INDEX 01 00:00:00

TRACK 02 AUDIO

TITLE "Tenant"

PERFORMER "Siouxsie and The Banshees"

ISRC GBF068025030

INDEX 00 03:51:53

INDEX 01 03:52:71

TRACK 03 AUDIO

TITLE "Trophy"

PERFORMER "Siouxsie and The Banshees"

ISRC GBF068025040

INDEX 01 07:34:35

 

zapisujesz zmiany.

 

 

prawoklikiem otwierasz menu kontekstowe -> otwórz za pomocą -> image files

 

otwiera ci się Nero (oczywiście jak go masz zainstalowanego)

 

nagrywasz

 

 

słuchasz z przyjemnością

 

 

stawiasz mi piwo ;)

Jestem Eszkimosem. Na Aktarktydzie jestem rebe

Link to comment
Share on other sites

ty pankrac sie nie produkuj, bo nie zdążysz do wucetu na pl. Trzech Krzyży obsłużyć klientów i będziesz pozniej przez tydzien dymał na zupkę do Brata Alberta

wiem,że wolałbyś do brata Adolfa, ale masz pecha

Jestem Eszkimosem. Na Aktarktydzie jestem rebe

Link to comment
Share on other sites

Archived

This topic is now archived and is closed to further replies.

  • Recently Browsing   0 members

    • No registered users viewing this page.
×
×
  • Create New...

Important Information

We have placed cookies on your device to help make this website better. You can adjust your cookie settings, otherwise we'll assume you're okay to continue.